Questions sur l'installation et la configuration de Manjaro Linux.
Répondre

Accès CD audio

#1Messageil y a 3 mois

Bonjour à tous,

Impossible de lire un titre audio en cliquant dessus quelque soit le lecteur installé (VLC-Amarock-Clementine). Le meilleur résultat obtenu c'est avec Clementine, il lit le cd, affiche les titres mais impossible d'en choisir un pour le lire, message d'erreur suivant :
Aucun gestionnaire d’URI implémenté pour « cdd ».
J'ai fait le tour sur le net mais rien à ce sujet, j'ai fait une install via trizen pour être d'avoir toutes les dépendances, mais cela ne change rien. Par contre la lecture du CD dans son intégralité fonctionne très bien.
Une idée ?

D'avance merci.

Accès CD audio

#2Messageil y a 3 mois

Salut,

Ce qui est bizarre, c'est que VLC et Clementine utilisent libcdio pour lire les CD audio, alors que Amarok se sert de phonon-qt5.
As tu essayé avec un autre disque ? Peux tu passer de la piste en cours à la suivante ou à la précédente ?
Pour voir si libcdio identifie bien ton disque (dans le cas de VLC et Clementine) :

cd-info --no-device-info
Je n'ai pas de soucis avec Deadbeef, j'ai aussi essayé avec mpv, je ne peux pas choisir de piste (c'est normal), mais passer à la suivante ou à la précédente avec les touches "Page Haut" "Page Bas".
Lecture du CD audio avec mpv :

mpv cdda:///dev/sr0

Accès CD audio

#3Messageil y a 3 mois

Bonjour
Curieusement si je fais VLC -> Média -> Ouvrir un disque, j'ai des erreurs :

Votre média d'entrée ne peut être ouvert:
VLC ne peut pas ouvrir « dvd:///deVotre média d'entrée ne peut être ouvert:
Votre média d'entrée ne peut être ouvert:
L'erreur tourne en boucle.
Mais si j'ouvre Thunar -> Disque Audio -> Clic droit sur un fichier.wav -> Ouvrir avec VLC , ça passe....
Bon, je dois y aller : on verra plus tard.

Accès CD audio

#4Messageil y a 3 mois

:salut:

Voila où j'en suis.
Avec un CD dans le lecteur.
Dolphin lit les le cd mais impossible de jouer un morceau et on entend le lecteur qui se met à "brouter".
Avec Clémentine si j'extrais le CD et crée une liste de lecture tout fonctionne normalement , par conre si je
sélectionne "Périphérique" le liste des morceaux s'affiche mais j'ai les messages suivant :
Aucun gestionnaire d’URI implémenté pour « cdd ».
Erreur pendant la lecture des données audio pour piste 05.mp3 depuis le cd
le résultat de "cd-info --no-device-info" donne :

cd-info version 2.1.0 x86_64-pc-linux-gnu
Copyright (c) 2003-2005, 2007-2008, 2011-2015, 2017 R. Bernstein
This is free software; see the source for copying conditions.
There is NO warranty; not even for MERCHANTABILITY or FITNESS FOR A
PARTICULAR PURPOSE.
CD location   : /dev/cdrom
CD driver name: GNU/Linux
   access mode: IOCTL

__________________________________

Disc mode is listed as: Error in getting information
++ WARN: error in ioctl CDROMREADTOCHDR: No medium found

cd-info: Can't get first track number. I give up.

Accès CD audio

#5Messageil y a 3 mois

Je croyais que c'était un véritable CD audio, mais non, c'est un CD de données avec des fichiers MP3 dessus. Normal que cd-info ne fonctionne pas.
Apparemment la piste 05 n'est pas bonne, c'est sans doute du à une erreur d'encodage ou de gravure, c'est peut être ce qui cause des problèmes de lecture.
Pour ce qui est du lecteur audio, tu dois ouvrir le répertoire du CD monté, qui devrait se trouver dans /run/media/, et non essayer de lire un CD audio.

Accès CD audio

#6Messageil y a 3 mois

Non il s'agit bien d'un cd audio mais sur lequel les morceaux sont enregistrés sous plusieurs
formats, mp3, opus, flac, cda, et wav, Dolphin ne les lit pas, par contre une fois copié sur le DD aucun soucis c'est uniquement la lecture directement sur le cd audio qui pose problème.
J'ai fais un test avec Thunar, il réagit tout à fait autrement, il n'affiche aucun des dossiers présents sur le CD mais uniquement les titres au format "wav" et si je veux en lire un il lit le titre, joue une dizaine de secondes, relit,rejoue et
ainsi de suite jusqu'à la fin.
Avec Clémentine c'est à peu près pareil, si je choisis l'option "Périphérique" il lit le CD audio, affiche les titres mais si je clique sur l'un où l'autre j'ai un message d'erreur, par contre si j'extrais les titres sur le DD aucun soucis, je peux créer des liste de lecture et les écouter.
J'espère avoir été clair dans mes propos.

Bonne journée

Accès CD audio

#7Messageil y a 3 mois

Le CD audio respecte un standard décrit dans un document officiel qui s'appelle le Red Book. Les logiciels capables de lire un CD audio interprètent ce qui se trouve sur le disque et affichent les pistes sous forme de fichiers .wav. Tout autre format, comme l'opus, le mp3, le flac ou le cda ne fait pas partie d'un CD audio standard, soit ton disque a un format bâtard, lisible seulement sur un système ou avec un logiciel particulier, soit c'est un CD de données.

un CD audio normal devrait renvoyer des résultats comme ceci :

cd-info --no-device-info
cd-info version 2.1.0 x86_64-pc-linux-gnu
Copyright (c) 2003-2005, 2007-2008, 2011-2015, 2017 R. Bernstein
This is free software; see the source for copying conditions.
There is NO warranty; not even for MERCHANTABILITY or FITNESS FOR A
PARTICULAR PURPOSE.
CD location   : /dev/cdrom
CD driver name: GNU/Linux
   access mode: IOCTL

__________________________________

Disc mode is listed as: CD-DA
CD-ROM Track List (1 - 12)
  #: MSF       LSN    Type   Green? Copy? Channels Premphasis?
  1: 00:02:33  000033 audio  false  no    2        no
  2: 03:30:55  015655 audio  false  no    2        no
  3: 06:53:30  030855 audio  false  no    2        no
  4: 12:16:55  055105 audio  false  no    2        no
  5: 15:11:38  068213 audio  false  no    2        no
  6: 20:19:58  091333 audio  false  no    2        no
  7: 24:14:10  108910 audio  false  no    2        no
  8: 27:55:63  125538 audio  false  no    2        no
  9: 31:57:45  143670 audio  false  no    2        no
 10: 35:35:23  159998 audio  false  no    2        no
 11: 40:11:70  180745 audio  false  no    2        no
 12: 42:37:18  191643 audio  false  no    2        no
170: 49:38:43  223243 leadout (500 MB raw, 500 MB formatted)
Media Catalog Number (MCN): 0000000000000
Last CD Session LSN: 0
audio status: no status
 can't get volume levels
__________________________________
CD Analysis Report
Audio CD, CDDB disc ID is 8e0ba00c
cd-info: Found 1 matches in CDDB
Disc ID: 8e0ba00c
CDDB category: rock (4)
Music genre: 'Rock'
Year: 1988
Artist: 'Hubert-Félix Thiefaine'
Title: '1978-1983'
Extended data: ' YEAR: 1979'
Length: 2978 seconds
Revision: 5
Number of tracks: 12
  Track  1
    number: 1
    frame offset: 183
    length: 208 seconds
    artist: 'Hubert-Félix Thiefaine'
    title: 'Narcisse 81'
    extended data: 'NULL'
  Track  2
    number: 2
    frame offset: 15805
    length: 202 seconds
    artist: 'Hubert-Félix Thiefaine'
    title: 'Psychanalyse du singe'
    extended data: 'NULL'
  Track  3
    number: 3
    frame offset: 31005
    length: 323 seconds
    artist: 'Hubert-Félix Thiefaine'
    title: 'Mathématiques Souterraines'
    extended data: 'NULL'
  Track  4
    number: 4
    frame offset: 55255
    length: 174 seconds
    artist: 'Hubert-Félix Thiefaine'
    title: 'La vierge au Dodge. 51'
    extended data: 'NULL'
  Track  5
    number: 5
    frame offset: 68363
    length: 308 seconds
    artist: 'Hubert-Félix Thiefaine'
    title: 'Groupie 89 Turbo 6'
    extended data: 'NULL'
  Track  6
    number: 6
    frame offset: 91483
    length: 234 seconds
    artist: 'Hubert-Félix Thiefaine'
    title: 'La fille du coupeur de joints'
    extended data: 'NULL'
  Track  7
    number: 7
    frame offset: 109060
    length: 221 seconds
    artist: 'Hubert-Félix Thiefaine'
    title: 'Rock autopsie'
    extended data: 'NULL'
  Track  8
    number: 8
    frame offset: 125688
    length: 241 seconds
    artist: 'Hubert-Félix Thiefaine'
    title: 'Lorelei Sebasto Cha'
    extended data: 'NULL'
  Track  9
    number: 9
    frame offset: 143820
    length: 217 seconds
    artist: 'Hubert-Félix Thiefaine'
    title: 'Soleil Cherche Futur'
    extended data: 'NULL'
  Track 10
    number: 10
    frame offset: 160148
    length: 276 seconds
    artist: 'Hubert-Félix Thiefaine'
    title: 'Les dingues et les paumés'
    extended data: 'NULL'
  Track 11
    number: 11
    frame offset: 180895
    length: 145 seconds
    artist: 'Hubert-Félix Thiefaine'
    title: 'Je t'en remets au vent'
    extended data: 'NULL'
  Track 12
    number: 12
    frame offset: 191793
    length: 421 seconds
    artist: 'Hubert-Félix Thiefaine'
    title: 'Alligators 427'
    extended data: 'NULL'
No CD-TEXT on Disc.
La première partie est tirée de l'analyse de la structure du disque, c'est un CD audio (CD-DA), avec 12 pistes (1 - 12), chaque piste est listée (170 indique la fin du disque), MSF indique le début de chaque piste en temps (2s 33 pour la 1ère, 3min 30s 55 pour la 2ème etc...), le type, on voit que ce sont des pistes audio, et le nombre de canaux (Channels) égal à 2, puisque c'est en stéréo.

La deuxième partie est fournie soit par des données sur le disque, soit en interrogeant par le réseau, la base de données CDDB, ce qui est le cas avec mon disque. Ce sont ces données qui permettent d'afficher le numéro de piste, le nom de l'artiste, le titre et la durée dans le lecteur audio.

C'est pourquoi, je pense que tu as un CD de données, et le plus simple serait d'aller voir dans /run/media/andson, si un répertoire correspond à ton CD monté.

Accès CD audio

#8Messageil y a 3 mois

:clap
Merci @Smurf pour cette description technique forte intéressante .
Pour m'éviter une recherche à la veille de mes vacances :gsourire: , que signifie la colonne "green" ?

Accès CD audio

#9Messageil y a 3 mois

Je crois que c'est dans le cas d'un CD interactif Philips (CD-i), mais je ne suis pas sur à 100 % (pas trouvé d'infos à ce sujet).

Accès CD audio

#10Messageil y a 3 mois

Il s'agit d'un CD audio de Barbara Deschamps acheté dans le commerce, voilà le résultat de la commande ;

cd-info --no-device-info
cd-info version 2.1.0 x86_64-pc-linux-gnu
Copyright (c) 2003-2005, 2007-2008, 2011-2015, 2017 R. Bernstein
This is free software; see the source for copying conditions.
There is NO warranty; not even for MERCHANTABILITY or FITNESS FOR A
PARTICULAR PURPOSE.
CD location   : /dev/cdrom
CD driver name: GNU/Linux
   access mode: IOCTL

__________________________________

Disc mode is listed as: CD-DA
CD-ROM Track List (1 - 12)
  #: MSF       LSN    Type   Green? Copy? Channels Premphasis?
  1: 00:02:00  000000 audio  false  no    2        no
  2: 05:26:54  024354 audio  false  no    2        no
  3: 10:47:31  048406 audio  false  no    2        no
  4: 14:05:25  063250 audio  false  no    2        no
  5: 18:14:05  081905 audio  false  no    2        no
  6: 23:38:33  106233 audio  false  no    2        no
  7: 27:24:02  123152 audio  false  no    2        no
  8: 31:36:48  142098 audio  false  no    2        no
  9: 35:45:17  160742 audio  false  no    2        no
 10: 41:16:74  185624 audio  false  no    2        no
 11: 47:03:18  211593 audio  false  no    2        no
 12: 49:34:00  222900 audio  false  no    2        no
170: 53:33:07  240832 leadout (540 MB raw, 540 MB formatted)
Media Catalog Number (MCN): 
Last CD Session LSN: 0
audio status: no status
volume level port 0: 216 (0..255)  84 (0..100)
volume level port 1: 216 (0..255)  84 (0..100)
volume level port 2:   0 (0..255)   0 (0..100)
volume level port 3:   0 (0..255)   0 (0..100)
__________________________________
CD Analysis Report
Audio CD, CDDB disc ID is b60c8b0c
++ WARN: command data missing
cd-info: Found 0 matches in CDDB

Language 0 'English':
CD-TEXT for Disc:
        TITLE: Barbara 2
CD-TEXT for Track  1:
        TITLE: 01. Une vie a deux
CD-TEXT for Track  2:
        TITLE: 02. Vos insuportables
CD-TEXT for Track  3:
        TITLE: 03. Un plus un
CD-TEXT for Track  4:
        TITLE: 04. J'ai ete donc je ne suis plus
CD-TEXT for Track  5:
        TITLE: 05. Vagabond
CD-TEXT for Track  6:
        TITLE: 06. D'est en ouest
CD-TEXT for Track  7:
        TITLE: 07. L'autoroute
CD-TEXT for Track  8:
        TITLE: 08. Citoyenne
CD-TEXT for Track  9:
        TITLE: 09. L'Heritier
CD-TEXT for Track 10:
        TITLE: 10. Drole de societe
CD-TEXT for Track 11:
        TITLE: 11. Bonsoir a tous
CD-TEXT for Track 12:
        TITLE: 12. Couleurs des iles
Si je lit le CD avec Dolpin il m'affiche les dossiers suivants

CD complet :
Il contient
audiocd:/CD complet/CD complet.cda?device=/dev/sr0
audiocd:/CD complet/CD complet.flac?device=/dev/sr0
audiocd:/CD complet/CD complet.mp3?device=/dev/sr0
audiocd:/CD complet/CD complet.ogg?device=/dev/sr0
audiocd:/CD complet/CD complet.opus?device=/dev/sr0
audiocd:/CD complet/CD complet.wav?device=/dev/sr0

Dossier CDA :
Il contient
audiocd:/CDA/Piste 01.cda?device=/dev/sr0
audiocd:/CDA/Piste 02.cda?device=/dev/sr0
audiocd:/CDA/Piste 03.cda?device=/dev/sr0
et ainsi de suite jusqu'à 12. Pareil pour les dossiers "FLAC", "MP3","OPUS", "OGG VORBIS".
Il affiche également tout les titres au format .wav mais ne les lit pas. Par contre je n'ai rien dans run/andson/media.
J'ai essayé d'autres CD audio ils présentent tous la même configuration et produisent le même résultat.
Encore merci pour ton implication et tes infos. :bien

Accès CD audio

#11Messageil y a 3 mois

J'ai compris, cette représentation du disque est spécifique à KDE et à Dolphin en particulier, qui propose de convertir les pistes du CD sous différents formats, flac, mp3 etc... C'est dans le cas où tu voudrais archiver ta musique sur le disque dur, ça permet de l'écouter sans le CD, et si besoin de la transférer vers d'autres appareils, comme un téléphone portable ou un baladeur audio.

Sous Thunar par exemple, je n'ai que ça :
Image

En général, ceux qui extraient et convertissent des CD audio, préfèrent des logiciels spécifiques proposant plus d'options d'encodage, comme Asunder, Rubyripper ou Grip.

Accès CD audio

#12Messageil y a 3 mois

J'ai également testé sous Thunar et obtenu le même résultat que toi, du coup je ne comprenais plus rien. C'est plus clair maintenant. :gsourire:
Merci pour tes retours
Bon WE.

Répondre